Airline Disaster 2010 720p Esub BluRay Dual Audio English Hindi 5...

  • Category Movies
  • Type Dubs/Dual Audio
  • Language Spanish
  • Total size 723.0 MB
  • Uploaded By PENDUDESI
  • Downloads 1599
  • Last checked 18 minutes ago
  • Date uploaded 3 days ago
  • Seeders 59
  • Leechers 21

Airline Disaster

ActionAdventureThriller

When the President learns that domestic terrorists have skyjacked the passenger jet her brother is flying, she must choose between family and the safety of the people in the cities below

Infohash : 046994017EB873D91CC6710B8A1CAA34FA1BF7CE



Video
ID : 1
Format : AVC
Codec ID : V_MPEG4/ISO/AVC
Duration : 1 h 29 min
Bit rate : 997 kb/s
Width : 1 280 pixels
Height : 720 pixels
Display aspect ratio : 16:9
Frame rate mode : Constant
Frame rate : 23.976 (24000/1001) FPS
Original frame rate : 23.976 (23976/1000) FPS
Stream size : 638 MiB (88%)
Writing library : x264 core 123 r2189 35cf912
Language : English

Audio #1
Format : AACAC
Duration : 1 h 30 min
Bit rate : 79.7 kb/s
Channel(s) : 6 channels
Channel positions : Front: L C R, Side: L R, LFE
Sampling rate : 44.1 kHz
Frame rate : 43.066 FPS (1024 spf)
Stream size : 51.3 MiB (7%)
Language : Hindi

Audio #2
Format : AAC
Duration : 1 h 29 min
Bit rate : 48.0 kb/s
Channel(s) : 6 channels
Channel positions : Front: L C R, Side: L R, LFE
Sampling rate : 44.1 kHz
Frame rate : 43.066 FPS (1024 spf)4%)
Language : English
Text
Duration : 1 h 23 min
Stream size : 27.7 KiB (0%)
Language : English



Files:

  • Airline Disaster 2010 720p Esub BluRay Dual Audio English Hindi 5.1 GOPI SAHI.mkv (723.0 MB)

There are currently no comments. Feel free to leave one :)

Code:

  • udp://tracker.coppersurfer.tk:6969/announce
  • udp://tracker.opentrackr.org:1337/announce
  • udp://tracker.zer0day.to:1337/announce
  • udp://zer0day.to:1337/announce
  • udp://p4p.arenabg.com:1337/announce
  • udp://explodie.org:6969/announce
  • udp://tracker.leechers-paradise.org:6969/announce
  • udp://public.popcorn-tracker.org:6969/announce
  • udp://explodie.org:6969